extratorrent - A Fan Made Alternative Login   |   Register
Important Information
Registrations are open now
-------------------------------------

Please click here to register with Extratorrent2 to recieve latest updates, add bookmarks and to post comments.

Friends
Friends

1) ProxyFix

Extratorrent2 > Categories > TV > The Big Bang Theory (2007) Season 11 S11 (1080p WEB-DL x265 HEVC 10bit AAC 5.1 Joy) [UTR] torrent


Browse TV torrents

The Big Bang Theory (2007) Season 11 S11 (1080p WEB-DL x265 HEVC 10bit AAC 5.1 Joy) [UTR] torrent


Download torrent: Download The Big Bang Theory (2007) Season 11 S11 (1080p WEB-DL x265 HEVC 10bit AAC 5.1 Joy) [UTR] torrent Magnet link Bookmark Torrent: The Big Bang Theory (2007) Season 11 S11 (1080p WEB-DL x265 HEVC 10bit AAC 5.1 Joy) [UTR]   The Big Bang Theory (2007) Season 11 S11 (1080p WEB-DL x265 HEVC 10bit AAC 5.1 Joy) [UTR] torrent
Info hash: 68D3B25BDE27A00EF373C50D2B7A5FC6B9E28679
Category: Categories > TV
Trackers:
View all torrent trackers >
Health:
 seeds: 16 ,  leechers: 8 |  Update >
Torrent language: English English
Total Size: 3.6 GB
Files List:
28    View torrent files >
Uploader:
UTRCorp
Torrent added: June 3, 2018, 4:28 am
Tags: utr, joybell
Users rating: ---, not rated. please login to rate.

Download The Big Bang Theory (2007) Season 11 S11 (1080p WEB-DL x265 HEVC 10bit AAC 5.1 Joy) [UTR] torrent



Torrent Description








Media Information

Media Information

Code:

General
Format : Matroska
Format version : Version 4 / Version 2
File size : 153 MiB
Duration : 20 min 46 s
Overall bit rate : 1 028 kb/s
Encoded date : UTC 2017-10-18 15:39:05
Writing application : mkvmerge v16.0.0 ('Protest') 64-bit
Writing library : libebml v1.3.5 + libmatroska v1.4.8
Writing frontend : StaxRip v1.7.0.3

Video
ID : 1
Format : HEVC
Format/Info : High Efficiency Video Coding
Format profile : Main @Main
Codec ID : V_MPEGH/ISO/HEVC
Duration : 20 min 45 s
Bit rate : 900 kb/s
Width : 1 904 pixels
Height : 1 072 pixels
Display aspect ratio : 16:9
Frame rate mode : Constant
Frame rate : 23.976 (24000/1001) FPS
Color space : YUV
Chroma subsampling : 4:2:0
Bit depth : 10 bits
Bits/(Pixel*Frame) : 0.018
Stream size : 134 MiB (87%)
Writing library : x265 2.5+14-2718cb5dd67f:[Windows][GCC 7.1.0][64 bit] 10bit
Encoding settings : cpuid=1173503 / frame-threads=3 / numa-pools=8 / wpp / no-pmode / no-pme / no-psnr / ssim / log-level=2 / input-csp=1 / input-res=1904x1072 / interlace=0 / total-frames=29874 / level-idc=0 / high-tier=1 / uhd-bd=0 / ref=4 / no-allow-non-conformance / no-repeat-headers / annexb / no-aud / no-hrd / info / hash=0 / no-temporal-layers / open-gop / min-keyint=23 / keyint=250 / bframes=4 / b-adapt=2 / b-pyramid / bframe-bias=0 / rc-lookahead=25 / lookahead-slices=4 / scenecut=40 / no-intra-refresh / ctu=64 / min-cu-size=8 / rect / no-amp / max-tu-size=32 / tu-inter-depth=1 / tu-intra-depth=1 / limit-tu=0 / rdoq-level=2 / dynamic-rd=0.00 / ssim-rd / signhide / no-tskip / nr-intra=0 / nr-inter=0 / no-constrained-intra / strong-intra-smoothing / max-merge=3 / limit-refs=3 / limit-modes / me=3 / subme=3 / merange=57 / temporal-mvp / weightp / no-weightb / no-analyze-src-pics / deblock=0:0 / sao / no-sao-non-deblock / rd=4 / no-early-skip / rskip / no-fast-intra / no-tskip-fast / no-cu-lossless / no-b-intra / no-splitrd-skip / rdpenalty=0 / psy-rd=0.00 / psy-rdoq=1.00 / no-rd-refine / analysis-reuse-mode=0 / no-lossless / cbqpoffs=0 / crqpoffs=0 / rc=abr / bitrate=900 / qcomp=0.60 / qpstep=4 / stats-write=0 / stats-read=2 / cplxblur=20.0 / qblur=0.5 / ipratio=1.40 / pbratio=1.30 / aq-mode=2 / aq-strength=1.00 / cutree / zone-count=0 / no-strict-cbr / qg-size=32 / no-rc-grain / qpmax=69 / qpmin=0 / no-const-vbv / sar=0 / overscan=0 / videoformat=5 / range=0 / colorprim=2 / transfer=2 / colormatrix=2 / chromaloc=0 / display-window=0 / max-cll=0,0 / min-luma=0 / max-luma=1023 / log2-max-poc-lsb=8 / vui-timing-info / vui-hrd-info / slices=1 / opt-qp-pps / opt-ref-list-length-pps / no-multi-pass-opt-rps / scenecut-bias=0.05 / no-opt-cu-delta-qp / no-aq-motion / no-hdr / no-hdr-opt / no-dhdr10-opt / analysis-reuse-level=5 / scale-factor=0 / refine-intra=0 / refine-inter=0 / refine-mv=0 / limit-sao / ctu-info=0
Default : Yes
Forced : No

Audio
ID : 2
Format : AAC
Format/Info : Advanced Audio Codec
Format profile : HE-AAC / LC
Codec ID : A_AAC
Duration : 20 min 46 s
Bit rate : 127 kb/s
Channel(s) : 6 channels
Channel positions : Front: L C R, Side: L R, LFE
Sampling rate : 48.0 kHz / 24.0 kHz
Frame rate : 23.438 FPS (1024 spf)
Compression mode : Lossy
Delay relative to video : 31 ms
Stream size : 18.8 MiB (12%)
Language : English
Default : Yes
Forced : No

Subtitle
ID : 3
Format : UTF-8
Codec ID : S_TEXT/UTF8
Codec ID/Info : UTF-8 Plain Text
Duration : 20 min 12 s
Bit rate : 93 b/s
Count of elements : 434
Stream size : 13.8 KiB (0%)
Language : English
Default : No
Forced : No



Source Information

Code:

Release:
The.Big.Bang.Theory.S11E23.The.Sibling.Realignment.1080p.AMZN.WEB-DL.DDP5.1.H.264-NTb.mkv (1.41 GBs)



Download The Big Bang Theory (2007) Season 11 S11 (1080p WEB-DL x265 HEVC 10bit AAC 5.1 Joy) [UTR] torrent


Related Torrents


Comments   (please login to add your comment!)

berlitz     the hurricane heist xvid     vida     road to revenge     ashley adams sexam     explorers 1985     kirtu collection     interracial alena     american reunion 2012     hdvpass     joybear paige turnah     ssec     piss pics     chowder     720p hindi dual audio     highest     batman v superman dawn of justice 2016     gio383     subhas chandra bose     natsuko     kicks 2016     cockpit 2018     zemana anti     k cup     


Home - Browse Torrents

Made with love by an Extratorrent Fan!